Dinotopia, El País de los Dinosaurios [DVDRip][Español][700MB][3/3][RG][1LINK]


>>>Click aquí para Descargar Dinotopia, El País de los Dinosaurios [DVDRip][Español][700MB][3/3][RG][1LINK]<<<

Dinotopia, El País de los Dinosaurios [Español][700MB][3/3][RG][1LINK] [Temporada Completa][MEGA][Subtitulada]


Datos técnicos:
Director: Marco Bambrilla
Actores: Lee Evans, Hannah Yelland, Tyron Leitson, Katie Karr, David Twelis, Wentworth Miller, Terry Jones
Guión: Simon Moore (Basado en los libros de James Gurney)
Año: 2002
Duración: 255 min.
Nacionalidad: Coproducción USA-Alemania
Productora: Hallmark Entertainment
Distribuidora: Divisa


El millonario Frank Scott (Stuart Wilson) y sus dos hijos, Karl (Tyron Leitso) y David (Wentworth Miller) sufren un accidente de avioneta en el Caribe, del que sólo sobreviven los dos jóvenes. Karl y David no tardan en descubrir que la isla en la que han naufragado, Dinotopía, es un mundo utópico en el que los humanos y los dinosaurios conviven de forma singular. Ambos se quedan prendados por la espectacular belleza de la capital, Ciudad de las Cascadas y por Marion (Katie Carr), la joven hija del alcade Waldo (Jim Carter).

Nº Capítulos: 3



Código:
Format                                   : AVI
Format/Info : Audio Video Interleave
File size : 704 MiB
Duration : 1h 24mn
Overall bit rate mode : Variable
Overall bit rate : 1 167 Kbps
Writing application : VirtualDubMod 1.5.10.1 (build 2389/release)
Writing library : VirtualDubMod build 2389/release
Video
ID : 0
Format : MPEG-4 Visual
Format settings, BVOP : 1
Format settings, QPel : No
Format settings, GMC : No warppoints
Format settings, Matrix : Default (H.263)
Muxing mode : Packed bitstream
Codec ID : DX50
Codec ID/Hint : DivX 5
Duration : 1h 24mn
Bit rate : 1 060 Kbps
Width : 640 pixels
Height : 480 pixels
Display aspect ratio : 4:3
Frame rate : 25.000 fps
Color space : YUV
Chroma subsampling : 4:2:0
Bit depth : 8 bits
Scan type : Progressive
Compression mode : Lossy
Bits/(Pixel*Frame) : 0.138
Stream size : 639 MiB (91%)
Writing library : DivX 5.0.2 (UTC 2002-05-16)
Audio
ID : 1
Format : MPEG Audio
Format version : Version 1
Format profile : Layer 3
Mode : Joint stereo
Mode extension : MS Stereo
Codec ID : 55
Codec ID/Hint : MP3
Duration : 1h 24mn
Bit rate mode : Variable
Bit rate : 96.0 Kbps
Channel(s) : 2 channels
Sampling rate : 32.0 KHz
Compression mode : Lossy
Stream size : 58.5 MiB (8%)
Alignment : Aligned on interleaves
Interleave, duration : 36 ms (0.90 video frame)
Interleave, preload duration : 505 ms
Writing library : LAME3.90.
Encoding settings : -m j -V 4 -q 2 -lowpass 15.4 –abr 96


Código:
http://***********.net/file/2755013/Dinotopia_-_Episodio_I__pacopando.avi.html

http://***********.net/file/2755360/Dinotopia_-_Episodio_II__pacopando.avi.html

http://***********.net/file/2755544/Dinotopia_-_Episodio_III__pacopando.avi.html

Dinotopia, El País de los Dinosaurios [Español][700MB][3/3][RG][1LINK] [Temporada Completa][MEGA][Subtitulada]

- descargar dinotopia la pelicula latino - ver pelicula dinotopia gratis - ver pelicula dinotopia el pais de los dinosaurios - dinotopia el pais de los dinosaurios pelicula completa en español - dinotopia pelicula completa - ver pelicula dino topia en español - ver dinotopia

Deja tu comentario!