(DVDRip) Before the Truth (1968) TVRip (Yugoslavia) Mega


>>>Click aquí para Descargar (DVDRip) Before the Truth (1968) TVRip (Yugoslavia) Mega<<<

(DVDRip) Before the Truth (1968) TVRip (Yugoslavia) [Ver Online][DVDRip Latino][MEGA]
Before the Truth (1968) TVRip (Yugoslavia)





Código:
Complete name : Pre istine (1968).avi
Format : AVI
Format/Info : Audio Video Interleave
File size : 1.36 GiB
Duration : 1h 18mn
Overall bit rate : 2 496 Kbps
Writing application : VirtualDubMod 1.5.10.2 (build 2540/release)
Writing library : VirtualDubMod build 2540/release

Video
ID : 0
Format : MPEG-4 Visual
Format profile : Advanced Simple@L5
Format settings, BVOP : 2
Format settings, QPel : Yes
Format settings, GMC : No warppoints
Format settings, Matrix : Default (MPEG)
Muxing mode : Packed bitstream
Codec ID : XVID
Codec ID/Hint : XviD
Duration : 1h 18mn
Bit rate : 2 295 Kbps
Width : 720 pixels
Height : 480 pixels
Display aspect ratio : 3:2
Frame rate : 25.000 fps
Standard : NTSC
Color space : YUV
Chroma subsampling : 4:2:0
Bit depth : 8 bits
Scan type : Progressive
Compression mode : Lossy
Bits/(Pixel*Frame) : 0.266
Stream size : 1.25 GiB (92%)
Writing library : XviD 64

Audio
ID : 1
Format : MPEG Audio
Format version : Version 1
Format profile : Layer 3
Mode : Joint stereo
Mode extension : MS Stereo
Codec ID : 55
Codec ID/Hint : MP3
Duration : 1h 18mn
Bit rate mode : Constant
Bit rate : 192 Kbps
Channel(s) : 2 channels
Sampling rate : 48.0 KHz
Compression mode : Lossy
Stream size : 107 MiB (8%)
Alignment : Aligned on interleaves
Interleave, duration : 40 ms (1.00 video frame)
Interleave, preload duration : 504 ms

IMDB: http://www.imdb.com/title/tt0181773/





Código:
http://***********.net/file/1b70cf6d6c8175e2417110ee826c046d/Pre_istine.part1.rar.html

http://***********.net/file/eb6477d4d94420028fdb913831cd6132/Pre_istine.part2.rar.html

http://***********/n6ozsc50

http://***********/5sjvfe3a

(DVDRip) Before the Truth (1968) TVRip (Yugoslavia) [Ver Online][DVDRip Latino][MEGA]

Deja tu comentario!