Un Lugar Para Refugiarse BDRip 720p, Ingles AC3 5.1 & DTS, Sub, 2013, Romance, DVDRip


Descargar Un Lugar Para Refugiarse BDRip 720p, Ingles AC3 5.1 & DTS, Sub, 2013, Romance, DVDRip

Un Lugar Para Refugiarse BDRip 720p, Ingles AC3 5.1 & DTS, Sub, 2013, Romance, DVDRip [MEGA][DVDRip][Español Latino]


Un Lugar Para Refugiarse [BDRip 720p][Ingles AC3 5.1 & DTS][Sub][2013][Romance]



Ficha Técnica
Un Lugar Para Refugiarse
Título original
Safe Haven
Año 2013
Duración 115 min.
País Estados Unidos
Director Lasse Hallström
Guión Leslie Bohem (Novela: Nicholas Sparks)
Música Deborah Lurie
Fotografía Terry Stacey
Reparto
Julianne Hough, Josh Duhamel, Cobie Smulders, David Lyons, Irene Ziegler, Red West, Noah Lomax, Mimi Kirkland
Productora Nicholas Sparks Productions / Relativity Media / Temple Hill Entertainment
Género Romance | Drama romántico


Sinopsis
Katie (Julianne Hough), una bella joven con un oscuro pasado, llega al pequeño pueblo costero de Southport, en Carolina del Norte. Allí conoce al apuesto Alex (Josh Duhamel), un joven viudo de buen corazón, y a una viuda que le enseñará a enfrentarse a las pesadillas que la acechan. Adaptación de una nueva novela de Nicholas Sparks. (FILMAFFINITY)


Datos Técnicos


Código:
General
Format : Matroska
Format version : Version 2
File size : 5.98 GiB
Duration : 1h 55mn
Overall bit rate : 7 403 Kbps
Movie name : CadagotoHD.Com ¡Visítanos!
Encoded date : UTC 2013-04-26 04:38:25
Writing application : mkvmerge v3.4.0 (‘Rapunzel’) built on May 15 2010 09:38:20
Writing library : libebml v0.8.0 + libmatroska v0.9.0

Video
ID : 1
Format : AVC
Format/Info : Advanced Video Codec
Format profile : [email protected]
Format settings, CABAC : Yes
Format settings, ReFrames : 5 frames
Codec ID : V_MPEG4/ISO/AVC
Duration : 1h 55mn
Bit rate : 5 252 Kbps
Width : 1 280 pixels
Height : 536 pixels
Display aspect ratio : 2.40:1
Frame rate mode : Constant
Frame rate : 23.976 fps
Color space : YUV
Chroma subsampling : 4:2:0
Bit depth : 8 bits
Scan type : Progressive
Bits/(Pixel*Frame) : 0.319
Stream size : 4.12 GiB (69%)
Title : CadagotoHD.Com ¡Visítanos!
Writing library : x264 core 130 r2273 b3065e6
Encoding settings : cabac=1 / ref=5 / deblock=1:0:0 / analyse=0×3:0×133 / me=umh / subme=7 / psy=1 / psy_rd=1.00:0.00 / mixed_ref=1 / me_range=16 / chroma_me=1 / trellis=1 / 8x8dct=1 / cqm=0 / deadzone=21,11 / fast_pskip=0 / chroma_qp_offset=-2 / threads=12 / lookahead_threads=2 / sliced_threads=0 / nr=0 / decimate=1 / interlaced=0 / bluray_compat=0 / constrained_intra=0 / bframes=3 / b_pyramid=2 / b_adapt=1 / b_bias=0 / direct=1 / weightb=1 / open_gop=0 / weightp=2 / keyint=250 / keyint_min=23 / scenecut=40 / intra_refresh=0 / rc_lookahead=40 / rc=2pass / mbtree=1 / bitrate=5252 / ratetol=1.0 / qcomp=0.60 / qpmin=0 / qpmax=69 / qpstep=4 / cplxblur=20.0 / qblur=0.5 / ip_ratio=1.40 / aq=1:1.00
Language : English
Default : No
Forced : No

Audio #1
ID : 2
Format : AC-3
Format/Info : Audio Coding 3
Mode extension : CM (complete main)
Format settings, Endianness : Big
Codec ID : A_AC3
Duration : 1h 55mn
Bit rate mode : Constant
Bit rate : 640 Kbps
Channel(s) : 6 channels
Channel positions : Front: L C R, Side: L R, LFE
Sampling rate : 48.0 KHz
Bit depth : 16 bits
Compression mode : Lossy
Stream size : 529 MiB (9%)
Title : CadagotoHD.Com – Audio Ingles AC3 5.1
Language : Spanish
Default : No
Forced : No

Audio #2
ID : 3
Format : DTS
Format/Info : Digital Theater Systems
Mode : 16
Format settings, Endianness : Big
Codec ID : A_DTS
Duration : 1h 55mn
Bit rate mode : Constant
Bit rate : 1 509 Kbps
Channel(s) : 6 channels
Channel positions : Front: L C R, Side: L R, LFE
Sampling rate : 48.0 KHz
Bit depth : 24 bits
Compression mode : Lossy
Delay relative to video : 11ms
Stream size : 1.22 GiB (20%)
Title : CadagotoHD.Com – Audio Ingles DTS
Language : English
Default : No
Forced : No

Text
ID : 4
Format : UTF-8
Codec ID : S_TEXT/UTF8
Codec ID/Info : UTF-8 Plain Text
Title : CadagotoHD.Com – Subtitulos
Language : Spanish
Default : Yes
Forced : Yes

Menu
00:00:00.000 : en:00:00:00.000
00:06:46.948 : en:00:06:46.948
00:15:18.918 : en:00:15:18.918
00:21:47.139 : en:00:21:47.139
00:28:33.712 : en:00:28:33.712
00:35:33.882 : en:00:35:33.882
00:44:57.612 : en:00:44:57.612
00:55:11.642 : en:00:55:11.642
01:01:17.966 : en:01:01:17.966
01:08:29.522 : en:01:08:29.522
01:15:27.898 : en:01:15:27.898
01:20:51.430 : en:01:20:51.430
01:26:05.160 : en:01:26:05.160
01:32:22.412 : en:01:32:22.412
01:37:28.009 : en:01:37:28.009
01:45:23.651 : en:01:45:23.651















Enlaces AQUI
http://d.identi-li.net/decode.php?h=aHR0cDovL3MybC5iaXovcDNtcXVsbTJldnlsZg==





Utiliza los Archivos .REV si tienes problema con 1,2,3 archivos en su descarga , Esté off o corruptos

Si necesitas 2 archivos , Bajas 2 REV y los reconstruirán Cualquiera que fuesen los que te falten !
Un Lugar Para Refugiarse BDRip 720p, Ingles AC3 5.1 & DTS, Sub, 2013, Romance, DVDRip [MEGA][DVDRip][Español Latino]

Deja tu comentario!